<?xml version="1.0" standalone="no"?>
<!DOCTYPE svg PUBLIC "-//W3C//DTD SVG 1.1//EN" "http://www.w3.org/Graphics/SVG/1.1/DTD/svg11.dtd" >
<svg xmlns="http://www.w3.org/2000/svg">
<metadata>Generated by IcoMoon</metadata>
<defs>
<font id="fubon-icon" horiz-adv-x="1024">
<font-face units-per-em="1024" ascent="1024" descent="0" />
<missing-glyph horiz-adv-x="1024" />
<glyph unicode="&#x20;" horiz-adv-x="0" d="" />
<glyph unicode="&#xe900;" glyph-name="alert-triangle-o" d="M455.475 915.434c17.254 9.713 36.719 14.816 56.516 14.816 19.802 0 39.266-5.103 56.516-14.816 17.254-9.713 31.714-23.709 41.98-40.638l0.085-0.142 361.634-603.717c10.061-17.421 15.377-37.171 15.433-57.289 0.060-20.113-5.154-39.893-15.117-57.37-9.958-17.476-24.324-32.038-41.66-42.24s-37.043-15.684-57.156-15.906l-0.329-0.004-723.101 0.004c-20.114 0.222-39.82 5.705-57.156 15.906s-31.7 24.764-41.661 42.24c-9.961 17.476-15.173 37.257-15.117 57.37 0.056 20.117 5.379 39.868 15.437 57.284l0.239 0.414 361.476 603.449c10.268 16.928 24.728 30.924 41.978 40.638zM511.991 870.516c-9.532 0-18.906-2.457-27.213-7.133-8.286-4.666-15.232-11.383-20.173-19.506-0.013-0.020-0.026-0.040-0.038-0.060l-361.164-602.938c-4.774-8.341-7.3-17.783-7.327-27.396-0.027-9.685 2.482-19.209 7.279-27.622s11.712-15.424 20.059-20.339c8.304-4.885 17.736-7.522 27.368-7.654h722.42c9.63 0.132 19.063 2.769 27.366 7.654 8.35 4.915 15.262 11.925 20.062 20.339 4.796 8.414 7.305 17.937 7.275 27.622-0.026 9.613-2.551 19.055-7.326 27.396l-361.165 602.938c-0.013 0.020-0.021 0.040-0.034 0.060-4.945 8.124-11.891 14.841-20.177 19.506-8.307 4.677-17.677 7.133-27.213 7.133zM512 669.865c16.495 0 29.867-13.372 29.867-29.867v-170.665c0-16.495-13.372-29.867-29.867-29.867s-29.867 13.372-29.867 29.867v170.665c0 16.495 13.372 29.867 29.867 29.867zM482.133 298.667c0 16.495 13.372 29.867 29.867 29.867h0.427c16.495 0 29.867-13.372 29.867-29.867s-13.372-29.867-29.867-29.867h-0.427c-16.495 0-29.867 13.372-29.867 29.867z" />
<glyph unicode="&#xe901;" glyph-name="arrow-right" d="M183.469 512c0 16.495 13.372 29.867 29.867 29.867h597.331c16.495 0 29.867-13.372 29.867-29.867s-13.372-29.867-29.867-29.867h-597.331c-16.495 0-29.867 13.372-29.867 29.867zM490.884 831.784c11.661 11.663 30.575 11.663 42.236 0l298.667-298.668c11.665-11.661 11.665-30.575 0-42.236l-298.667-298.667c-11.661-11.665-30.575-11.665-42.236 0-11.665 11.661-11.665 30.575 0 42.236l277.547 277.551-277.547 277.546c-11.665 11.663-11.665 30.574 0 42.238z" />
<glyph unicode="&#xe902;" glyph-name="arrow-up" d="M511.998 840.532c16.495 0 29.867-13.372 29.867-29.867v-597.331c0-16.495-13.372-29.867-29.867-29.867s-29.867 13.372-29.867 29.867v597.331c0 16.495 13.372 29.867 29.867 29.867zM490.882 831.785c11.661 11.663 30.575 11.663 42.236 0l298.667-298.668c11.665-11.661 11.665-30.575 0-42.236-11.661-11.665-30.575-11.665-42.236 0l-277.551 277.547-277.546-277.547c-11.663-11.665-30.574-11.665-42.238 0-11.663 11.661-11.663 30.575 0 42.236l298.668 298.668z" />
<glyph unicode="&#xe903;" glyph-name="check-circle-o" d="M673.502 874.696c-78.161 34.825-165.483 43.453-248.947 24.596s-158.595-64.189-214.189-129.235c-55.595-65.046-88.674-146.32-94.304-231.702-5.63-85.38 16.491-170.295 63.063-242.078s115.101-126.588 195.365-156.241c80.264-29.653 167.965-32.567 250.018-8.303 82.057 24.26 154.069 74.394 205.303 142.929 51.234 68.531 78.942 151.791 78.993 237.359v39.236c0 16.495 13.372 29.867 29.867 29.867s29.867-13.372 29.867-29.867v-39.253c-0.060-98.449-31.936-194.257-90.884-273.109-58.944-78.848-141.798-136.533-236.207-164.446s-195.311-24.559-287.657 9.557c-92.347 34.116-171.191 97.173-224.774 179.759-53.583 82.59-79.034 180.288-72.556 278.519 6.478 98.236 44.536 191.745 108.5 266.582s150.405 126.993 246.432 148.689c96.027 21.696 196.494 11.77 286.423-28.298 15.066-6.714 21.837-24.37 15.125-39.437-6.716-15.067-24.371-21.839-39.437-15.125zM959.778 874.461c11.669-11.658 11.678-30.568 0.021-42.238l-426.667-427.094c-5.602-5.606-13.201-8.755-21.124-8.755-7.923-0.004-15.522 3.145-21.124 8.747l-128.001 128c-11.663 11.661-11.663 30.575 0 42.236 11.664 11.665 30.575 11.665 42.238 0l106.871-106.871 405.547 405.955c11.661 11.669 30.571 11.679 42.24 0.021z" />
<glyph unicode="&#xe904;" glyph-name="check" d="M874.453 789.117c11.665-11.664 11.665-30.575 0-42.238l-469.332-469.332c-11.663-11.665-30.574-11.665-42.238 0l-213.333 213.333c-11.663 11.661-11.663 30.575 0 42.236 11.664 11.665 30.575 11.665 42.238 0l192.215-192.213 448.215 448.215c11.661 11.663 30.575 11.663 42.236 0z" />
<glyph unicode="&#xe905;" glyph-name="chevron-down" d="M234.883 661.117c11.664 11.663 30.575 11.663 42.238 0l234.879-234.881 234.884 234.881c11.661 11.663 30.575 11.663 42.236 0 11.665-11.664 11.665-30.575 0-42.238l-256-255.999c-11.661-11.665-30.575-11.665-42.236 0l-256.001 255.999c-11.663 11.663-11.663 30.574 0 42.238z" />
<glyph unicode="&#xe906;" glyph-name="chevron-left" d="M661.12 789.117c11.665-11.664 11.665-30.575 0-42.238l-234.88-234.879 234.88-234.884c11.665-11.661 11.665-30.575 0-42.236-11.661-11.665-30.575-11.665-42.236 0l-256.001 256c-11.663 11.661-11.663 30.575 0 42.236l256.001 256.001c11.661 11.663 30.575 11.663 42.236 0z" />
<glyph unicode="&#xe907;" glyph-name="chevron-right" d="M362.883 789.117c11.664 11.663 30.575 11.663 42.238 0l255.999-256.001c11.665-11.661 11.665-30.575 0-42.236l-255.999-256c-11.663-11.665-30.574-11.665-42.238 0-11.663 11.661-11.663 30.575 0 42.236l234.881 234.884-234.881 234.879c-11.663 11.663-11.663 30.574 0 42.238z" />
<glyph unicode="&#xe908;" glyph-name="chevron-up" d="M490.884 661.117c11.661 11.663 30.575 11.663 42.236 0l256-256.001c11.665-11.661 11.665-30.575 0-42.236-11.661-11.665-30.575-11.665-42.236 0l-234.884 234.88-234.879-234.88c-11.663-11.665-30.574-11.665-42.238 0-11.663 11.661-11.663 30.575 0 42.236l256.001 256.001z" />
<glyph unicode="&#xe909;" glyph-name="hamburger" d="M96 810.667c0 17.673 14.327 32 32 32h768c17.673 0 32-14.327 32-32s-14.327-32-32-32h-768c-17.673 0-32 14.327-32 32zM96 512c0 17.673 14.327 32 32 32h768c17.673 0 32-14.327 32-32s-14.327-32-32-32h-768c-17.673 0-32 14.327-32 32zM96 213.333c0 17.673 14.327 32 32 32h768c17.673 0 32-14.327 32-32s-14.327-32-32-32h-768c-17.673 0-32 14.327-32 32z" />
<glyph unicode="&#xe90a;" glyph-name="help-circle-o" d="M512 908.798c-219.145 0-396.798-177.653-396.798-396.798 0-219.149 177.653-396.8 396.798-396.8 219.149 0 396.8 177.651 396.8 396.8 0 219.145-177.651 396.798-396.8 396.798zM55.469 512c0 252.134 204.397 456.531 456.531 456.531 252.139 0 456.538-204.397 456.538-456.531 0-252.139-204.399-456.538-456.538-456.538-252.134 0-456.531 204.399-456.531 456.538zM525.171 694.25c-22.844 3.918-46.332-0.375-66.313-12.117s-35.161-30.177-42.851-52.039c-5.474-15.56-22.525-23.737-38.085-18.263s-23.737 22.525-18.263 38.085c12.372 35.169 36.791 64.825 68.932 83.715s69.931 25.795 106.679 19.492c36.745-6.303 70.071-25.406 94.080-53.928 24.009-28.519 37.15-64.613 37.094-101.892-0.017-58.505-43.499-98.283-77.299-120.815-17.809-11.874-35.409-20.651-48.435-26.445-6.558-2.914-12.062-5.116-16-6.618-1.967-0.747-3.554-1.327-4.689-1.728l-1.357-0.478-0.602-0.205c-0.009 0-0.038-0.013-9.485 28.322l9.485-28.322c-15.646-5.214-32.602 3.23-37.815 18.88-5.214 15.633 3.226 32.529 18.846 37.764 0.004 0-0.004-0.004 0 0 0.004 0 0.038 0.013 0.043 0.013l0.094 0.034 0.781 0.273c0.742 0.265 1.907 0.687 3.435 1.267 3.068 1.169 7.561 2.965 13.005 5.385 10.974 4.877 25.374 12.096 39.561 21.555 30.199 20.134 50.701 44.339 50.701 71.151v0.045c0.034 23.175-8.132 45.615-23.057 63.344s-35.644 29.605-58.483 33.523zM482.133 298.667c0 16.495 13.372 29.867 29.867 29.867h0.427c16.495 0 29.867-13.372 29.867-29.867s-13.372-29.867-29.867-29.867h-0.427c-16.495 0-29.867 13.372-29.867 29.867z" />
<glyph unicode="&#xe90b;" glyph-name="info-circle-o" d="M512 908.798c-219.145 0-396.798-177.653-396.798-396.798 0-219.149 177.653-396.8 396.798-396.8 219.149 0 396.8 177.651 396.8 396.8 0 219.145-177.651 396.798-396.8 396.798zM55.469 512c0 252.134 204.397 456.531 456.531 456.531 252.139 0 456.538-204.397 456.538-456.531 0-252.139-204.399-456.538-456.538-456.538-252.134 0-456.531 204.399-456.531 456.538zM512 541.867c16.495 0 29.867-13.372 29.867-29.867v-170.667c0-16.495-13.372-29.867-29.867-29.867s-29.867 13.372-29.867 29.867v170.667c0 16.495 13.372 29.867 29.867 29.867zM482.133 682.665c0 16.495 13.372 29.867 29.867 29.867h0.427c16.495 0 29.867-13.372 29.867-29.867s-13.372-29.867-29.867-29.867h-0.427c-16.495 0-29.867 13.372-29.867 29.867z" />
<glyph unicode="&#xe90c;" glyph-name="minus" d="M183.469 512c0 16.495 13.372 29.867 29.867 29.867h597.331c16.495 0 29.867-13.372 29.867-29.867s-13.372-29.867-29.867-29.867h-597.331c-16.495 0-29.867 13.372-29.867 29.867z" />
<glyph unicode="&#xe90d;" glyph-name="plus" d="M512 840.531c16.495 0 29.867-13.372 29.867-29.867v-597.331c0-16.495-13.372-29.867-29.867-29.867s-29.867 13.372-29.867 29.867v597.331c0 16.495 13.372 29.867 29.867 29.867zM183.469 512c0 16.495 13.372 29.867 29.867 29.867h597.331c16.495 0 29.867-13.372 29.867-29.867s-13.372-29.867-29.867-29.867h-597.331c-16.495 0-29.867 13.372-29.867 29.867z" />
<glyph unicode="&#xe90e;" glyph-name="share" d="M768 908.798c-54.195 0-98.133-43.936-98.133-98.133s43.938-98.133 98.133-98.133c54.199 0 98.133 43.936 98.133 98.133s-43.934 98.133-98.133 98.133zM610.133 810.665c0 87.187 70.682 157.867 157.867 157.867 87.189 0 157.867-70.679 157.867-157.867s-70.677-157.867-157.867-157.867c-87.185 0-157.867 70.679-157.867 157.867zM256.002 610.131c-54.198 0-98.133-43.936-98.133-98.131 0-54.199 43.936-98.133 98.133-98.133s98.133 43.934 98.133 98.133c0 54.195-43.936 98.131-98.133 98.131zM98.135 512c0 87.185 70.679 157.865 157.867 157.865s157.867-70.679 157.867-157.865c0-87.189-70.679-157.867-157.867-157.867s-157.867 70.677-157.867 157.867zM768 311.467c-54.195 0-98.133-43.938-98.133-98.133 0-54.199 43.938-98.133 98.133-98.133 54.199 0 98.133 43.934 98.133 98.133 0 54.195-43.934 98.133-98.133 98.133zM610.133 213.333c0 87.185 70.682 157.867 157.867 157.867 87.189 0 157.867-70.682 157.867-157.867 0-87.189-70.677-157.867-157.867-157.867-87.185 0-157.867 70.677-157.867 157.867zM340.702 462.605c8.305 14.251 26.591 19.072 40.842 10.765l291.412-169.813c14.255-8.303 19.076-26.59 10.769-40.841-8.303-14.251-26.59-19.072-40.841-10.769l-291.415 169.813c-14.252 8.307-19.072 26.59-10.768 40.845zM683.29 761.286c8.311-14.246 3.503-32.535-10.743-40.849l-290.985-169.815c-14.246-8.311-32.535-3.503-40.849 10.743s-3.505 32.538 10.742 40.849l290.987 169.813c14.246 8.314 32.533 3.505 40.849-10.742z" />
<glyph unicode="&#xe90f;" glyph-name="star-o" d="M512.004 968.531c11.366 0 21.747-6.453 26.782-16.647l124.898-253.029 279.305-40.825c11.247-1.644 20.587-9.529 24.090-20.341 3.507-10.812 0.572-22.676-7.569-30.607l-202.082-196.826 47.693-278.063c1.92-11.209-2.684-22.532-11.883-29.214s-21.393-7.561-31.454-2.27l-249.779 131.358-249.78-131.358c-10.063-5.291-22.257-4.412-31.455 2.27s-13.805 18.005-11.884 29.214l47.691 278.063-202.080 196.826c-8.143 7.93-11.078 19.795-7.572 30.607s12.844 18.697 24.091 20.341l279.307 40.825 124.899 253.029c5.030 10.193 15.411 16.647 26.782 16.647zM512.004 871.188l-105.060-212.837c-4.346-8.806-12.745-14.912-22.462-16.333l-234.98-34.346 170.006-165.586c7.045-6.861 10.26-16.751 8.598-26.445l-40.115-233.89 210.112 110.494c8.7 4.578 19.098 4.578 27.802 0l210.108-110.494-40.115 233.89c-1.66 9.694 1.553 19.584 8.602 26.445l170.005 165.586-234.982 34.346c-9.715 1.42-18.112 7.527-22.46 16.333l-105.058 212.837z" />
<glyph unicode="&#xe910;" glyph-name="world" d="M510.165 981.333c-260.57 0-467.499-214.971-467.499-471.168 0-258.385 209.090-467.499 467.499-467.499 256.482 0 471.168 207.223 471.168 467.499 0 257.227-211.857 471.168-471.168 471.168zM349.094 893.284c-76.168-94.254-109.393-233.55-113.452-355.616h-137.051c10.397 159.995 110.796 295.603 250.503 355.616zM98.605 482.667h137.038c4.068-121.775 37.152-258.871 112.288-351.731-139.027 59.703-238.871 193.69-249.326 351.731zM482.667 101.022c-45.692 11.106-88.785 49.711-123.541 111.501-40.838 72.597-64.809 167.676-68.455 270.144h191.996v-381.645zM482.667 537.668h-191.983c7.145 196.022 89.883 359.927 191.983 385.266v-385.266zM925.402 537.668h-137.054c-5.018 146.581-49.83 275.402-116.42 355.938 141.338-59.851 242.965-195.66 253.474-355.938zM537.668 922.817c101.82-25.733 188.386-186.58 195.648-385.149h-195.648v385.149zM537.668 100.979v382.054h195.644c-7.159-194.889-92.42-357.291-195.644-382.054zM673.506 130.786c76.915 93.632 110.669 231.262 114.837 352.247h137.041c-10.556-158.165-111.437-292.612-251.878-352.247z" />
<glyph unicode="&#xe911;" glyph-name="cross" d="M789.12 789.117c11.665-11.664 11.665-30.575 0-42.238l-511.999-511.999c-11.663-11.665-30.574-11.665-42.238 0-11.663 11.661-11.663 30.575 0 42.236l512.001 512.001c11.661 11.663 30.575 11.663 42.236 0zM234.883 789.117c11.664 11.663 30.575 11.663 42.238 0l511.999-512.001c11.665-11.661 11.665-30.575 0-42.236-11.661-11.665-30.575-11.665-42.236 0l-512.001 511.999c-11.663 11.663-11.663 30.574 0 42.238z" />
<glyph unicode="&#xe912;" glyph-name="benefit-bg" d="M993.041 764.3c-26.88 98.94-129.779 201.86-228.74 228.74-60.681 15.12-141.961 30.7-252.301 30.96-110.34-0.26-191.62-15.84-252.3-30.96-98.94-26.88-201.86-129.78-228.74-228.74-15.12-60.68-30.7-141.96-30.96-252.3 0.26-110.34 15.84-191.62 30.96-252.301 26.88-98.961 129.8-201.86 228.74-228.74 60.68-15.117 142-30.699 252.3-30.959 110.319 0.26 191.62 15.842 252.301 30.959 98.961 26.88 201.86 129.779 228.74 228.74 15.117 60.681 30.699 141.999 30.959 252.301-0.26 110.34-15.842 191.62-30.959 252.3z" />
<glyph unicode="&#xe913;" glyph-name="benefit-circle" d="M226.659 938.049c83.869 56.040 182.472 85.951 283.341 85.951 135.261 0 264.982-53.732 360.624-149.375s149.376-225.364 149.376-360.624c0-100.868-29.914-199.473-85.952-283.338-56.038-83.872-135.686-149.242-228.877-187.84-93.193-38.598-195.737-48.698-294.668-29.024-98.93 19.68-189.804 68.256-261.128 139.578-71.324 71.328-119.897 162.195-139.576 261.128-19.678 98.931-9.579 201.474 29.022 294.664s103.969 172.842 187.838 228.881zM512.635 294.003l306.687 321.957c8.147 8.566 14.528 18.654 18.771 29.686 4.25 11.032 6.278 22.792 5.984 34.609-0.301 11.818-2.925 23.46-7.718 34.264-4.8 10.804-11.68 20.557-20.243 28.702-8.57 8.145-18.656 14.523-29.69 18.77-11.027 4.247-22.79 6.279-34.605 5.981-11.821-0.298-23.462-2.921-34.266-7.718s-20.557-11.677-28.698-20.243l-242.073-254.22-97.5 100.47c-8.073 9.087-17.903 16.445-28.898 21.63s-22.925 8.088-35.072 8.536c-12.147 0.448-24.26-1.57-35.606-5.931s-21.692-10.975-30.412-19.444c-8.72-8.468-15.635-18.616-20.326-29.83s-7.062-23.261-6.97-35.416c0.092-12.156 2.646-24.166 7.507-35.308s11.928-21.182 20.776-29.517l162.69-167.611c8.388-8.634 18.424-15.501 29.513-20.192s23.007-7.104 35.047-7.104h0.39c12.111 0.058 24.084 2.566 35.203 7.366s21.155 11.789 29.507 20.563z" />
<glyph unicode="&#xe914;" glyph-name="account" d="M376.236 882.431c36.007 36.007 84.842 56.236 135.764 56.236 25.212 0 50.18-4.966 73.476-14.615 23.292-9.649 44.459-23.792 62.289-41.62 17.826-17.829 31.97-38.995 41.621-62.289 9.647-23.295 14.613-48.262 14.613-73.475s-4.966-50.181-14.613-73.475c-9.651-23.294-23.795-44.46-41.621-62.289-17.83-17.827-38.997-31.971-62.289-41.622-23.296-9.647-48.265-14.613-73.476-14.613-50.923 0-99.758 20.228-135.764 56.236s-56.236 84.843-56.236 135.764c0 50.921 20.229 99.758 56.236 135.764zM399.24 469.333h225.524c46.234 0 83.529 0 113.728-2.466 31.1-2.543 58.415-7.91 83.691-20.783 40.137-20.454 72.777-53.090 93.231-93.231 12.873-25.276 18.244-52.595 20.787-83.695 2.466-30.199 2.466-67.49 2.466-113.728v-27.43c0-23.565-19.102-42.667-42.667-42.667h-768c-23.564 0-42.667 19.102-42.667 42.667v27.426c0 46.238-0.001 83.533 2.467 113.732 2.541 31.1 7.91 58.415 20.783 83.691 20.453 40.137 53.090 72.777 93.23 93.231 25.275 12.873 52.595 18.244 83.693 20.787 30.202 2.466 67.497 2.466 113.734 2.466v0z" />
<glyph unicode="&#xe915;" glyph-name="assignment" d="M158.025 0c-27.812 0-51.622 10.024-71.427 30.077s-29.709 44.163-29.709 72.323v716.8c0 28.16 9.903 52.267 29.709 72.32s43.615 30.080 71.427 30.080h212.385c10.956 30.72 29.288 55.467 54.993 74.24s54.571 28.16 86.597 28.16c32.026 0 60.892-9.387 86.597-28.16s44.037-43.52 54.993-74.24h212.383c27.813 0 51.621-10.027 71.43-30.080 19.803-20.053 29.707-44.16 29.707-72.32v-716.8c0-28.16-9.904-52.27-29.707-72.323-19.809-20.053-43.617-30.077-71.43-30.077h-707.949zM259.161 204.8h353.975v102.4h-353.975v-102.4zM259.161 409.6h505.676v102.4h-505.676v-102.4zM259.161 614.4h505.676v102.4h-505.676v-102.4zM512 857.6c10.956 0 20.016 3.627 27.18 10.88s10.746 16.427 10.746 27.52c0 11.093-3.582 20.267-10.746 27.52s-16.224 10.88-27.18 10.88c-10.956 0-20.016-3.627-27.18-10.88s-10.746-16.427-10.746-27.52c0-11.093 3.582-20.267 10.746-27.52s16.224-10.88 27.18-10.88z" />
<glyph unicode="&#xe916;" glyph-name="linkedin" d="M0 878.847c0 32.18 11.532 58.728 34.595 79.644s53.045 31.375 89.946 31.375c36.243 0 65.565-10.297 87.969-30.892 23.063-21.239 34.595-48.912 34.595-83.024 0-30.892-11.202-56.635-33.606-77.231-23.063-21.238-53.374-31.858-90.934-31.858h-0.989c-36.242 0-65.565 10.62-87.969 31.858s-33.606 47.948-33.606 80.127zM12.849 34.133v644.878h219.429v-644.878h-219.429zM353.853 34.133h219.428v360.090c0 22.526 2.636 39.903 7.907 52.13 9.225 21.883 23.228 40.387 42.008 55.51 18.78 15.125 42.337 22.687 70.672 22.687 73.803 0 110.701-48.591 110.701-145.774v-344.643h219.43v369.743c0 95.252-23.060 167.495-69.188 216.73s-107.076 73.852-182.859 73.852c-85.006 0-151.227-35.72-198.671-107.158v-1.931h-0.989l0.989 1.931v91.711h-219.428c1.318-20.594 1.977-84.632 1.977-192.112s-0.659-258.404-1.977-452.766z" />
<glyph unicode="&#xe917;" glyph-name="subtract" d="M512 170.667c211.513 0 404.537 171.179 512 341.333-130.788 161.678-283.989 341.333-512 341.333s-381.212-179.655-512-341.333c107.463-170.155 300.487-341.333 512-341.333zM592.452 431.547c-21.339-21.338-50.277-33.325-80.452-33.325s-59.116 11.987-80.453 33.325c-21.338 21.337-33.325 50.277-33.325 80.453s11.987 59.116 33.325 80.453c21.337 21.338 50.277 33.325 80.453 33.325s59.113-11.987 80.452-33.325c21.339-21.337 33.326-50.277 33.326-80.453s-11.986-59.116-33.326-80.453z" />
<glyph unicode="&#xe918;" glyph-name="twitter" d="M684.208 938.482v0.184h48.014l17.539-3.504c11.696-2.275 22.318-5.256 31.858-8.944s18.773-7.992 27.699-12.909c8.926-4.917 17.021-9.928 24.286-15.030 7.202-5.041 13.665-10.389 19.393-16.044 5.66-5.717 14.495-7.192 26.499-4.426s24.929 6.608 38.781 11.526c13.847 4.917 27.546 10.45 41.085 16.597 13.545 6.148 21.794 10.051 24.747 11.71 2.896 1.721 4.437 2.643 4.619 2.766l0.182 0.277 0.927 0.461 2.77 1.383 0.182 0.277 0.558 0.369 0.182 0.277 0.922 0.277 0.922 0.184-0.182-1.383-0.279-1.383-0.922-2.766-0.922-1.844-0.461-1.383c-0.313-0.922-0.62-2.151-0.927-3.688s-3.231-7.684-8.772-18.442c-5.541-10.758-12.464-21.669-20.776-32.734-8.306-11.065-15.758-19.425-22.34-25.081-6.65-5.717-11.054-9.713-13.21-11.987-2.15-2.336-4.767-4.487-7.845-6.455l-4.619-3.043-1.843-0.922-0.188-0.276-0.273-0.184-0.279-0.184-0.188-0.277-1.843-0.922-0.188-0.277-0.273-0.184-0.279-0.184-0.188-0.276-0.182-0.277-0.279-0.184-0.273-0.184-0.188-0.276h4.619l25.85 5.532c17.237 3.688 33.707 8.145 49.402 13.37l29.087 9.682 3.692 1.844 1.843 0.276 1.849 0.184v-1.844l-0.461-0.184-0.461-0.276-0.188-0.276-0.273-0.184-0.279-0.185-0.188-0.276-0.182-0.276-0.279-0.184-0.273-0.184-0.188-0.277-0.182-0.276-0.279-0.184-0.922-1.844-0.279-0.184c-0.125-0.184-4.033-5.409-11.725-15.675-7.697-10.328-11.85-15.552-12.47-15.676-0.614-0.184-1.473-1.106-2.583-2.766-1.047-1.721-7.572-8.575-19.575-20.562s-23.757-22.651-35.271-31.996c-11.571-9.405-17.419-20.962-17.545-34.67-0.182-13.647-0.893-29.076-2.122-46.288-1.234-17.212-3.538-35.807-6.929-55.786-3.385-19.979-8.613-42.569-15.696-67.773-7.077-25.203-15.696-49.792-25.856-73.766-10.155-23.974-20.77-45.489-31.852-64.546s-21.237-35.193-30.47-48.408c-9.233-13.215-18.62-25.663-28.166-37.348-9.54-11.679-21.606-24.832-36.193-39.464-14.649-14.569-22.653-22.556-24.007-23.973-1.417-1.354-7.447-6.394-18.096-15.121-10.593-8.789-21.976-17.579-34.167-26.374-12.123-8.727-23.268-16.014-33.422-21.851-10.16-5.842-22.409-12.51-36.75-20.008-14.285-7.561-29.734-14.569-46.354-21.026-16.621-6.451-34.164-12.447-52.631-17.983-18.467-5.53-36.318-9.83-53.555-12.908-17.235-3.072-36.78-5.683-58.633-7.834l-32.779-3.231v-0.461h-60.018v0.461l-7.849 0.461c-5.232 0.307-9.541 0.614-12.927 0.922-3.385 0.307-16.159 2.002-38.319 5.074s-39.55 6.144-52.169 9.222c-12.619 3.072-31.394 8.914-56.325 17.516-24.93 8.607-46.26 17.306-63.989 26.095-17.666 8.732-28.747 14.262-33.241 16.6-4.432 2.276-9.418 5.103-14.958 8.482l-8.31 5.069-0.184 0.279-0.278 0.182-0.277 0.188-0.185 0.279-1.847 0.922-0.184 0.273-0.278 0.188-0.277 0.182-0.185 0.279-0.184 0.273-0.278 0.188h-0.462v1.843l0.923-0.188 0.923-0.273 4.155-0.461c2.77-0.307 10.311-0.768 22.622-1.382s25.392-0.614 39.243 0c13.85 0.614 28.009 1.997 42.474 4.147s31.548 5.842 51.246 11.065c19.699 5.228 37.796 11.435 54.294 18.625 16.436 7.253 28.131 12.663 35.087 16.23 6.894 3.504 17.42 10.018 31.578 19.547l21.237 14.29 0.184 0.279 0.277 0.182 0.278 0.188 0.184 0.273 0.184 0.279 0.277 0.182 0.278 0.188 0.184 0.279 0.923 0.273 0.923 0.188 0.185 0.922 0.276 0.922 0.278 0.182 0.184 0.279-7.387 0.461c-4.924 0.307-9.695 0.614-14.312 0.922s-11.849 1.69-21.699 4.147c-9.849 2.463-20.467 6.15-31.856 11.065-11.388 4.921-22.468 10.758-33.241 17.522-10.772 6.758-18.559 12.385-23.361 16.873-4.74 4.426-10.896 10.695-18.467 18.813-7.51 8.175-14.035 16.564-19.575 25.17s-10.834 18.535-15.881 29.783l-7.665 16.782-0.462 1.383-0.461 1.383-0.277 0.922-0.185 0.922 1.385-0.184 1.385-0.276 10.156-1.384c6.772-0.922 17.391-1.229 31.856-0.922 14.466 0.307 24.469 0.922 30.009 1.844s8.926 1.537 10.157 1.844l1.847 0.461 4.617 0.922 0.184 0.276 0.555 0.369 0.184 0.276-9.234 2.305c-1.231 0.307-3.385 0.922-6.464 1.844-3.077 0.922-11.387 4.303-24.93 10.143-13.542 5.84-24.315 11.526-32.317 17.058-8.022 5.549-15.672 11.617-22.899 18.165-7.202 6.639-15.112 15.184-23.731 25.634-8.618 10.45-16.312 22.591-23.084 36.423-6.771 13.831-11.849 27.047-15.235 39.649-3.372 12.528-5.597 25.336-6.647 38.266l-1.663 19.363 0.923-0.184 0.923-0.276 3.693-1.844 14.312-6.455c9.542-4.303 21.391-7.992 35.549-11.065s22.622-4.764 25.392-5.071l4.155-0.461h8.31l-0.184 0.276-0.555 0.369-0.185 0.276-0.184 0.276-0.278 0.184-0.276 0.185-0.185 0.276-1.847 0.922-0.184 0.276-0.278 0.184-0.277 0.184-0.184 0.277-1.847 0.922-0.184 0.277c-0.184 0.123-2.832 2.090-7.942 5.901-5.048 3.873-10.341 8.883-15.882 15.030s-11.080 12.602-16.62 19.363c-5.551 6.777-10.494 14.028-14.774 21.669-4.308 7.684-8.864 17.459-13.665 29.322-4.74 11.803-8.341 23.697-10.803 35.684s-3.847 23.821-4.155 35.5c-0.307 11.68 0 21.669 0.923 29.967s2.77 17.674 5.54 28.124c2.77 10.45 6.772 21.515 12.004 33.195l7.848 17.52 0.461 1.383 0.462 1.383 0.278 0.184 0.184 0.277 0.185 0.277 0.277 0.184 0.278-0.184 0.184-0.277 0.185-0.277 0.277-0.184 0.278-0.184 0.368-0.554 0.277-0.184 0.462-0.922 0.461-0.922 0.278-0.184 0.184-0.277 12.465-13.831c8.31-9.221 18.16-19.517 29.548-30.89s17.698-17.273 18.929-17.704c1.232-0.492 2.77-1.905 4.617-4.242 1.847-2.275 8.003-7.715 18.467-16.321 10.465-8.606 24.162-18.596 41.090-29.967s35.703-22.591 56.325-33.656c20.622-11.065 42.783-21.054 66.481-29.967s40.32-14.754 49.861-17.52c9.542-2.767 25.854-6.301 48.938-10.604s40.474-7.070 52.169-8.299c11.696-1.229 19.699-1.936 24.007-2.121l6.464-0.184-0.184 1.383-0.278 1.384-1.847 11.526c-1.231 7.684-1.847 18.442-1.847 32.273s1.077 26.586 3.232 38.266c2.155 11.68 5.387 23.513 9.695 35.5 4.309 11.987 8.527 21.608 12.65 28.861 4.186 7.192 9.665 15.399 16.436 24.62s15.544 18.748 26.316 28.584 23.083 18.596 36.935 26.279c13.847 7.684 26.624 13.524 38.32 17.52s21.544 6.609 29.548 7.838c7.999 1.229 12.004 1.936 12.004 2.121v0z" />
<glyph unicode="&#xe919;" glyph-name="location" d="M512.432 1000.727c-101.808-0.115-199.413-40.61-271.401-112.599s-112.483-169.593-112.599-271.401c0-328.583 349.091-576.87 363.927-587.343 5.946-3.961 12.929-6.074 20.073-6.074s14.127 2.113 20.073 6.074c14.836 10.473 363.928 258.76 363.928 587.343-0.116 101.808-40.611 199.412-112.598 271.401-71.992 71.989-169.593 112.483-271.403 112.599v0zM512.432 756.364c27.617 0 54.613-8.19 77.578-23.533 22.961-15.344 40.862-37.152 51.428-62.667 10.57-25.515 13.335-53.592 7.945-80.678-5.385-27.087-18.683-51.969-38.214-71.495-19.53-19.53-44.409-32.829-71.496-38.218-27.087-5.385-55.163-2.621-80.678 7.95-25.515 10.566-47.324 28.463-62.667 51.428-15.344 22.963-23.533 49.96-23.533 77.577 0 37.034 14.712 72.551 40.899 98.738s61.704 40.899 98.738 40.899v0z" />
<glyph unicode="&#xe91a;" glyph-name="cross-circle" d="M512 1011.2c-98.732 0-195.248-29.278-277.341-84.13s-146.077-132.817-183.86-224.034c-37.783-91.217-47.669-191.588-28.407-288.423s66.806-185.784 136.62-255.601c69.815-69.816 158.764-117.361 255.599-136.622s197.209-9.375 288.426 28.411c91.213 37.78 169.18 101.765 224.031 183.859 54.856 82.094 84.132 178.606 84.132 277.34-0.256 132.318-52.931 259.144-146.493 352.708s-220.39 146.239-352.707 146.492v0zM692.961 385.761c7.209-7.281 11.254-17.116 11.254-27.361s-4.045-20.081-11.254-27.361c-7.342-7.096-17.152-11.064-27.361-11.064s-20.019 3.968-27.361 11.064l-126.239 126.72-126.24-126.72c-7.34-7.096-17.15-11.064-27.36-11.064s-20.020 3.968-27.36 11.064c-7.211 7.281-11.256 17.116-11.256 27.361s4.045 20.081 11.256 27.361l126.72 126.239-126.72 126.24c-6.124 7.461-9.253 16.932-8.779 26.573s4.516 18.76 11.341 25.585c6.825 6.825 15.945 10.868 25.585 11.341s19.112-2.656 26.573-8.779l126.24-126.719 126.239 126.719c7.465 6.124 16.932 9.253 26.573 8.779s18.76-4.516 25.585-11.341c6.825-6.825 10.87-15.945 11.341-25.585 0.476-9.64-2.652-19.112-8.776-26.573l-126.72-126.24 126.72-126.239z" />
<glyph unicode="&#xe91b;" glyph-name="dialogue" d="M256 435.2c21.334 0 39.458 7.475 54.374 22.426 14.95 14.915 22.426 33.039 22.426 54.374 0 21.334-7.475 39.458-22.426 54.374-14.916 14.95-33.041 22.426-54.374 22.426s-39.458-7.475-54.374-22.426c-14.95-14.916-22.426-33.041-22.426-54.374 0-21.335 7.475-39.46 22.426-54.374 14.916-14.95 33.041-22.426 54.374-22.426zM512 435.2c21.335 0 39.46 7.475 54.374 22.426 14.95 14.915 22.426 33.039 22.426 54.374 0 21.334-7.475 39.458-22.426 54.374-14.915 14.95-33.039 22.426-54.374 22.426-21.334 0-39.458-7.475-54.374-22.426-14.95-14.916-22.426-33.041-22.426-54.374 0-21.335 7.475-39.46 22.426-54.374 14.916-14.95 33.041-22.426 54.374-22.426zM768 435.2c21.335 0 39.46 7.475 54.374 22.426 14.95 14.915 22.426 33.039 22.426 54.374 0 21.334-7.475 39.458-22.426 54.374-14.915 14.95-33.039 22.426-54.374 22.426s-39.46-7.475-54.374-22.426c-14.95-14.916-22.426-33.041-22.426-54.374 0-21.335 7.475-39.46 22.426-54.374 14.915-14.95 33.039-22.426 54.374-22.426zM512 0c-70.826 0-137.386 13.45-199.68 40.346-62.294 26.865-116.48 63.334-162.56 109.414s-82.551 100.265-109.414 162.56c-26.897 62.295-40.346 128.855-40.346 199.68s13.449 137.386 40.346 199.68c26.863 62.294 63.334 116.48 109.414 162.56s100.266 82.569 162.56 109.466c62.294 26.863 128.854 40.294 199.68 40.294s137.385-13.431 199.68-40.294c62.295-26.897 116.48-63.386 162.56-109.466s82.55-100.266 109.414-162.56c26.895-62.294 40.346-128.854 40.346-199.68s-13.45-137.385-40.346-199.68c-26.865-62.295-63.334-116.48-109.414-162.56s-100.265-82.55-162.56-109.414c-62.295-26.895-128.855-40.346-199.68-40.346z" />
<glyph unicode="&#xe91c;" glyph-name="alert-circle" d="M512 1011.2c-98.732 0-195.248-29.278-277.341-84.13s-146.077-132.817-183.86-224.034c-37.783-91.217-47.669-191.588-28.407-288.423s66.806-185.784 136.62-255.601c69.815-69.816 158.764-117.361 255.599-136.622s197.209-9.375 288.426 28.411c91.213 37.78 169.18 101.765 224.031 183.859 54.856 82.094 84.132 178.606 84.132 277.34-0.128 132.357-52.762 259.257-146.35 352.847-93.594 93.591-220.493 146.226-352.85 146.353v0zM473.6 742.4c0 10.184 4.046 19.952 11.247 27.153s16.969 11.247 27.153 11.247c10.184 0 19.953-4.046 27.151-11.247 7.204-7.201 11.249-16.969 11.249-27.153v-268.8c0-10.184-4.045-19.953-11.249-27.151-7.199-7.204-16.968-11.249-27.151-11.249s-19.951 4.045-27.153 11.249c-7.201 7.199-11.247 16.968-11.247 27.151v268.8zM512 243.2c-11.392 0-22.529 3.379-32.001 9.708s-16.855 15.324-21.215 25.851c-4.36 10.522-5.5 22.103-3.278 33.28 2.223 11.172 7.708 21.437 15.764 29.491s18.319 13.542 29.492 15.764c11.173 2.222 22.757 1.080 33.278-3.277 10.527-4.362 19.523-11.745 25.851-21.217s9.708-20.608 9.708-32c0-15.278-6.067-29.926-16.87-40.73s-25.452-16.87-40.73-16.87z" />
<glyph unicode="&#xe91d;" glyph-name="check-circle-f" d="M512 1024c-282.112 0-512-229.888-512-512s229.888-512 512-512c282.112 0 512 229.888 512 512s-229.888 512-512 512zM756.736 629.76l-290.304-290.304c-7.2-7.194-16.96-11.228-27.136-11.228s-19.936 4.035-27.136 11.228l-144.896 144.896c-7.141 7.224-11.146 16.978-11.146 27.136 0 10.16 4.005 19.91 11.146 27.136 14.848 14.848 39.424 14.848 54.272 0l117.76-117.76 263.168 263.168c14.848 14.848 39.424 14.848 54.272 0s14.848-38.912 0-54.272z" />
<glyph unicode="&#xe91e;" glyph-name="phone" d="M758.345 42.277c-70.217 2.584-269.214 30.086-477.623 238.446-208.36 208.408-235.813 407.358-238.446 477.624-3.901 107.081 78.117 211.090 172.861 251.709 11.409 4.927 23.903 6.802 36.256 5.443s24.14-5.907 34.205-13.196c78.019-56.856 131.852-142.872 178.078-210.505 10.171-14.859 14.52-32.941 12.218-50.8s-11.094-34.247-24.701-46.041l-95.134-70.656c-4.596-3.319-7.832-8.193-9.105-13.718s-0.499-11.323 2.181-16.32c21.553-39.156 59.88-97.477 103.765-141.362 43.934-43.886 104.984-84.748 146.871-108.739 5.252-2.945 11.435-3.769 17.276-2.302 5.837 1.468 10.893 5.12 14.126 10.201l61.928 94.257c11.386 15.126 28.18 25.259 46.87 28.272 18.686 3.018 37.82-1.312 53.385-12.083 68.608-47.494 148.675-100.401 207.287-175.445 7.88-10.138 12.893-22.206 14.516-34.943 1.619-12.737-0.21-25.678-5.3-37.469-40.814-95.232-144.091-176.323-251.514-172.373z" />
<glyph unicode="&#xe91f;" glyph-name="calendar" d="M32 70.4c0-21.238 17.16-38.4 38.4-38.4h883.2c21.238 0 38.4 17.162 38.4 38.4v504h-960v-504zM953.6 905.6h-201.6v76.8c0 5.28-4.321 9.6-9.6 9.6h-67.2c-5.279 0-9.6-4.32-9.6-9.6v-76.8h-307.2v76.8c0 5.28-4.32 9.6-9.6 9.6h-67.2c-5.28 0-9.6-4.32-9.6-9.6v-76.8h-201.6c-21.24 0-38.4-17.16-38.4-38.4v-211.2h960v211.2c0 21.24-17.162 38.4-38.4 38.4z" />
<glyph unicode="&#xe920;" glyph-name="email" d="M921.6 921.6h-819.2c-56.32 0-101.888-46.080-101.888-102.4l-0.512-614.4c0-56.32 46.080-102.4 102.4-102.4h819.2c56.32 0 102.4 46.080 102.4 102.4v614.4c0 56.32-46.080 102.4-102.4 102.4zM901.12 704l-361.984-226.304c-16.384-10.24-37.888-10.24-54.272 0l-361.984 226.304c-5.134 2.882-9.63 6.776-13.215 11.446s-6.186 10.018-7.645 15.722c-1.459 5.704-1.745 11.644-0.841 17.462s2.979 11.392 6.099 16.385c3.121 4.993 7.221 9.3 12.055 12.662s10.298 5.708 16.065 6.897c5.766 1.188 11.714 1.194 17.482 0.018s11.239-3.511 16.079-6.863l343.040-214.528 343.040 214.528c4.838 3.352 10.312 5.687 16.077 6.863 5.77 1.177 11.72 1.17 17.485-0.018s11.233-3.534 16.067-6.897c4.833-3.362 8.934-7.669 12.052-12.662 3.123-4.993 5.197-10.567 6.098-16.385 0.906-5.818 0.62-11.758-0.84-17.462s-4.060-11.053-7.644-15.722c-3.584-4.67-8.079-8.564-13.215-11.446z" />
<glyph unicode="&#xe921;" glyph-name="facebook" d="M697.35 854.014h96.255v162.816c-46.602 4.846-93.432 7.239-140.287 7.168-139.264 0-234.496-84.992-234.496-240.64v-134.144h-157.184v-182.27h157.184v-466.944h188.416v466.944h156.671l23.552 182.27h-180.223v116.224c0 53.76 14.336 88.576 90.112 88.576z" />
<glyph unicode="&#xe922;" glyph-name="instagram" d="M875.866 764.204c11.396-30.241 17.446-62.234 17.877-94.549 2.377-40.643 2.389-53.936 2.47-156.815l0.004-1.438c0-104.235-0.555-117.248-2.389-158.293-0.64-31.957-6.656-63.445-17.877-93.312-9.894-25.498-24.998-48.661-44.339-68.002s-42.5-34.441-68.002-44.339c-29.854-11.204-61.393-17.246-93.269-17.877-40.747-2.389-54.101-2.389-158.293-2.389s-117.207 0.555-158.295 2.389c-31.942 1.054-63.47 7.543-93.227 19.2-25.512 9.877-48.684 24.964-68.035 44.301s-34.456 42.496-44.349 67.998c-11.221 29.909-17.237 61.397-17.877 93.312-2.389 40.789-2.389 54.101-2.389 158.293 0 104.194 0.555 117.207 2.389 158.295 0.602 31.867 6.649 63.397 17.877 93.227 9.877 25.512 24.971 48.682 44.315 68.026s42.514 34.438 68.026 44.315c29.839 11.201 61.361 17.261 93.227 17.92 40.747 2.347 54.101 2.347 158.295 2.347 104.192 0 117.205-0.512 158.251-2.347 31.876-0.655 63.415-6.714 93.269-17.92 25.506-9.884 48.674-24.98 68.015-44.323 19.345-19.344 34.441-42.51 44.326-68.018zM314.499 512.896c0-108.971 88.277-197.248 197.249-197.248 52.314 0 102.481 20.783 139.473 57.775s57.775 87.159 57.775 139.473c0 52.314-20.783 102.486-57.775 139.477s-87.159 57.772-139.473 57.772c-108.972 0-197.249-88.277-197.249-197.25zM699.238 674.937c5.581-2.31 11.567-3.495 17.609-3.49 25.387 0 45.952 20.565 45.952 45.995 0 6.037-1.19 12.016-3.499 17.593-2.313 5.578-5.7 10.646-9.967 14.915-4.271 4.269-9.34 7.655-14.916 9.966s-11.554 3.5-17.591 3.5c-6.037 0-12.015-1.189-17.596-3.5-5.577-2.31-10.645-5.696-14.912-9.966-4.271-4.269-7.659-9.337-9.967-14.915-2.313-5.577-3.499-11.556-3.499-17.593-0.009-6.042 1.178-12.025 3.49-17.608 2.308-5.583 5.696-10.655 9.967-14.927s9.344-7.66 14.929-9.969zM639.872 512.892c0-70.763-57.365-128.128-128.128-128.128s-128.129 57.365-128.129 128.128c0 70.763 57.367 128.129 128.129 128.129s128.128-57.367 128.128-128.129z" />
<glyph unicode="&#xe923;" glyph-name="star-f" d="M998.415 574.574l-206.034-179.811 61.722-267.704c3.267-13.998 2.335-28.641-2.683-42.112-5.012-13.466-13.885-25.16-25.503-33.613-11.622-8.453-25.482-13.292-39.839-13.911-14.356-0.625-28.58 3-40.888 10.419l-233.487 141.619-232.987-141.619c-12.308-7.419-26.53-11.044-40.888-10.419-14.358 0.62-28.213 5.458-39.835 13.911s-20.494 20.147-25.507 33.613c-5.013 13.471-5.945 28.114-2.679 42.112l61.627 267.433-206.079 180.083c-10.9 9.401-18.781 21.81-22.657 35.673s-3.571 28.56 0.873 42.25c4.445 13.69 12.832 25.763 24.111 34.705s24.947 14.355 39.29 15.561l271.635 23.527 106.032 252.905c5.537 13.27 14.877 24.606 26.843 32.579s26.024 12.228 40.403 12.228c14.378 0 28.438-4.254 40.403-12.228s21.304-19.309 26.844-32.579l106.348-252.905 271.544-23.527c14.346-1.205 28.012-6.619 39.291-15.561s19.666-21.015 24.11-34.705c4.444-13.69 4.751-28.388 0.876-42.25s-11.756-26.272-22.656-35.673h-0.23z" />
<glyph unicode="&#xe924;" glyph-name="chat" d="M510 992c-281.22 0-510-201.856-510-450 0-104.824 41.484-206.394 116.982-286.906 14.942-61.609-3.194-126.884-48.194-171.884-18.816-18.816-5.51-51.21 21.212-51.21 85.488 0 167.9 33.485 229.13 92.549 60.586-21.622 124.688-32.548 190.87-32.548 281.219 0 514 201.856 514 449.999s-232.781 450-514 450zM274 451.999c-49.628 0-90 40.371-90 90.001 0 49.628 40.372 90 90 90s90-40.372 90-90c0-49.63-40.372-90.001-90-90.001zM514.002 451.999c-49.63 0-90.002 40.371-90.002 90.001 0 49.628 40.372 90 90.002 90 49.628 0 89.999-40.372 89.999-90 0-49.63-40.371-90.001-89.999-90.001zM754.002 451.999c-49.628 0-89.999 40.371-89.999 90.001 0 49.628 40.371 90 89.999 90s89.999-40.372 89.999-90c0-49.63-40.371-90.001-89.999-90.001z" />
<glyph unicode="&#xe925;" glyph-name="time" d="M512 1011.2c275.712 0 499.2-223.488 499.2-499.2s-223.488-499.2-499.2-499.2c-275.712 0-499.2 223.488-499.2 499.2s223.488 499.2 499.2 499.2zM550.4 819.2c0 10.184-4.045 19.952-11.249 27.153-7.199 7.201-16.968 11.247-27.151 11.247s-19.952-4.046-27.153-11.247c-7.201-7.201-11.247-16.969-11.247-27.153v-307.2c0-21.197 17.203-38.4 38.4-38.4h230.4c10.184 0 19.953 4.045 27.151 11.249 7.204 7.199 11.249 16.968 11.249 27.151s-4.045 19.952-11.249 27.153c-7.199 7.201-16.968 11.247-27.151 11.247h-192v268.8z" />
<glyph unicode="&#xe926;" glyph-name="youtube" d="M534.686 171.56l-210.085 3.703c-68.021 1.291-136.211-1.286-202.898 12.083-101.447 19.974-108.634 117.907-116.154 200.054-10.362 115.488-6.351 233.074 13.204 347.599 11.039 64.26 54.483 102.605 121.668 106.778 226.798 15.143 455.103 13.348 681.401 6.284 23.899-0.648 47.963-4.187 71.526-8.217 116.332-19.652 119.165-130.632 126.709-224.056 7.521-94.388 4.341-189.261-10.030-283.007-11.531-77.617-33.599-142.709-126.709-148.995-116.662-8.215-230.645-14.831-347.633-12.726 0.005 0.501-0.667 0.501-1 0.501zM411.176 368.070c87.914 48.648 174.153 96.485 261.563 144.806-88.081 48.647-174.152 96.485-261.563 144.806v-289.612z" />
<glyph unicode="&#xe927;" glyph-name="smile" horiz-adv-x="3195" d="M0 624.832l364.198 397.171c314.751-318.136 752.908-515.725 1234.278-515.725 481.374 0 919.532 197.589 1232.208 517.721l364.196-401.163c-413.434-383.4-977.080-620.505-1596.195-620.505s-1184.834 237.105-1598.269 622.501h-0.416z" />
<glyph unicode="&#xe928;" glyph-name="o" horiz-adv-x="899" d="M446.748 3.314c245.366 0 444.976 200.626 444.976 447.234v122.312c0 246.609-199.69 447.231-445.055 447.231s-444.976-200.623-444.976-447.231v-122.312c0-246.608 199.611-447.234 444.976-447.234h0.079zM192.848 572.86c0 140.658 113.951 255.186 253.9 255.186s253.9-114.529 253.9-255.186v-122.312c0-140.659-113.951-255.183-253.9-255.183s-253.9 114.525-253.9 255.183v122.312z" />
<glyph unicode="&#xe929;" glyph-name="address" d="M512.009 191.424c83.473 74.722 147.349 146.394 191.629 215.019 44.284 68.621 66.423 128.725 66.423 180.305 0 77.786-24.713 141.731-74.133 191.838-49.425 50.106-110.729 75.159-183.919 75.159s-134.496-25.053-183.918-75.159c-49.422-50.106-74.133-114.051-74.133-191.838 0-51.58 22.14-111.684 66.42-180.305 44.281-68.625 108.158-140.297 191.631-215.019zM512.009 130.547c-8.316 0-16.627 1.434-24.943 4.305s-15.838 7.317-22.566 13.333c-38.288 35.281-74.116 71.616-107.484 109.005s-62.373 74.761-87.016 112.124c-24.643 37.359-44.143 74.394-58.502 111.095-14.359 36.706-21.539 72.154-21.539 106.338 0 98.463 31.849 178.175 95.549 239.139s139.199 91.447 226.502 91.447c87.3 0 162.803-30.482 226.5-91.447 63.701-60.964 95.548-140.676 95.548-239.139 0-34.185-7.177-69.564-21.538-106.133-14.357-36.565-33.792-73.6-58.295-111.095-24.508-37.5-53.444-74.871-86.81-112.124-33.37-37.252-69.197-73.515-107.49-108.8-6.626-6.016-14.161-10.53-22.601-13.538s-16.875-4.51-25.314-4.51zM512.081 517.743c21.231 0 39.381 7.561 54.451 22.677 15.070 15.121 22.605 33.293 22.605 54.524s-7.561 39.381-22.677 54.451c-15.121 15.070-33.293 22.605-54.524 22.605s-39.381-7.559-54.451-22.677c-15.070-15.118-22.605-33.292-22.605-54.524s7.561-39.381 22.677-54.451c15.121-15.070 33.293-22.605 54.524-22.605z" />
<glyph unicode="&#xe92a;" glyph-name="email-outline" d="M853.333 881.067h-682.667c-62.293 0-113.067-50.773-113.067-113.067v-483.84c0-62.293 50.773-113.067 113.067-113.067h682.667c62.293 0 113.067 50.773 113.067 113.067v483.84c0 62.293-50.773 113.067-113.067 113.067zM170.667 825.6h682.667c31.573 0 57.6-26.027 57.6-57.6v-61.44l-372.907-190.72c-16.213-8.533-35.84-8.533-52.48 0l-372.48 190.72v61.44c0 31.573 26.027 57.6 57.6 57.6zM853.333 226.56h-682.667c-31.573 0-57.6 26.027-57.6 57.6v360.107l347.307-177.493c16.213-8.107 33.707-12.373 51.627-12.373s35.413 4.267 51.627 12.373l347.307 177.493v-360.107c0-31.573-26.027-57.6-57.6-57.6z" />
<glyph unicode="&#xe92b;" glyph-name="phone-outline" d="M768 100.267s-3.84 0-5.973 0h-9.387c-63.147 5.12-121.6 22.187-175.36 50.773-116.907 56.32-219.307 136.107-302.933 236.8-63.147 72.96-113.067 156.16-148.48 247.040-18.773 44.8-27.733 94.72-25.6 144.213 1.707 35.413 17.067 67.84 42.667 92.16 13.227 12.373 26.027 25.173 38.827 38.4 9.387 9.387 18.347 18.347 27.733 27.733 7.68 8.533 17.92 15.787 29.44 20.907s23.893 8.107 36.267 8.533c14.507 0 26.453-2.987 38.4-8.533 11.52-5.12 21.76-12.373 30.293-21.76l70.827-70.827c11.52-11.52 23.467-23.040 34.987-34.987 8.107-6.4 16.64-17.493 22.187-29.44s8.533-25.173 8.533-38.827-2.987-26.453-8.533-38.827c-5.547-11.947-14.080-23.040-24.32-31.147-18.347-18.773-37.973-38.827-58.027-58.453 14.507-30.293 31.573-56.747 52.053-80.64 45.653-57.6 98.987-106.667 160-145.92 7.253-4.267 14.933-8.107 23.040-12.373 3.413-1.707 6.827-3.413 10.24-5.12 20.053 20.48 40.533 40.533 60.587 60.587 6.827 8.107 17.493 16.213 29.44 21.76 23.467 10.667 52.053 10.667 75.52 0 11.52-5.547 21.76-12.8 29.867-22.187 35.413-34.987 70.827-70.4 105.387-105.387 8.107-6.827 16.213-17.493 21.76-29.44 5.547-12.373 8.533-25.173 8.533-38.4s-2.987-26.027-8.533-38.4c-5.547-11.947-13.653-22.613-23.893-31.147l-17.493-17.493c-13.653-13.227-27.733-26.453-40.107-40.96-14.080-16.213-32-29.013-51.627-37.12-17.92-7.68-37.12-11.52-56.747-11.52zM275.627 910.933c-3.84 0-8.96-1.28-13.653-3.413s-9.387-5.12-12.8-9.387c-10.24-9.813-18.773-18.773-27.733-27.733-13.227-13.227-26.453-26.453-40.107-39.68-14.933-14.080-23.893-33.28-25.173-54.187-1.707-40.96 5.973-82.773 21.76-120.747 32.853-85.333 79.787-162.987 139.093-231.68 78.933-94.72 174.933-169.813 285.867-223.147 48.213-25.6 99.413-40.533 152.747-44.8h8.107c14.080-0.853 27.733 2.133 39.68 7.253s23.040 13.227 32 23.040c13.653 15.36 28.16 29.44 43.093 43.947l18.773 18.347c5.547 4.693 8.96 8.96 11.093 13.653s3.413 9.813 3.413 14.933-1.28 10.24-3.413 14.933c-2.133 4.693-5.547 8.96-9.387 12.373-36.693 36.693-72.107 72.107-107.52 107.52l-1.707 1.707c-3.413 3.84-7.253 6.827-11.947 8.96-8.96 4.267-20.053 4.267-29.013 0-4.693-2.133-8.533-5.12-11.947-8.96-23.040-23.040-44.8-44.373-66.133-66.56-2.56-3.413-5.973-6.4-9.813-8.96-4.267-2.987-9.387-4.693-14.933-5.973-5.12-0.853-11.093-0.853-16.64 0.427-4.693 0.853-9.387 3.413-14.080 6.4-2.56 1.28-8.107 3.84-13.653 6.827-9.813 4.693-19.627 9.387-28.587 15.36-66.56 43.093-124.587 96-173.227 157.867-25.6 29.867-46.933 64-63.147 101.12-3.84 5.973-5.547 16.213-3.413 26.027s7.68 18.773 15.787 24.747c19.2 19.2 40.533 40.96 62.293 62.72 6.4 5.547 9.387 9.813 11.52 14.080 2.133 4.693 3.413 9.813 3.413 14.933s-1.28 10.24-3.413 14.933c-2.133 4.693-5.547 8.96-9.387 12.373-13.653 13.653-25.173 24.747-36.693 36.267l-71.68 71.68c-4.267 4.693-8.533 7.68-13.227 9.813s-9.813 3.413-15.36 3.413zM384 628.48s0 0 0 0c0 0 0 0 0 0s0 0 0 0zM384.853 644.693s0.853-1.707 1.28-2.56c0 0.853-0.853 1.707-1.28 2.56z" />
<glyph unicode="&#xe92c;" glyph-name="budget" d="M158.151 865.849h387.982v-196.267h-387.982v196.267zM452.267 256c0 88.747 36.409 168.391 95.573 225.849h-35.271c-16.498 0-30.151 13.653-30.151 30.151s13.653 30.151 30.151 30.151h63.716c11.947 0 22.187-6.827 26.738-16.498 30.72 18.773 64.853 32.427 101.262 40.391v337.92c0 65.991-23.893 120.036-90.453 120.036h-493.796c-65.991 0-120.036-54.044-120.036-120.036v-783.929c0-65.991 54.044-120.036 120.036-120.036h463.076c-79.076 57.458-130.844 150.756-130.844 256zM97.849 896c0 16.498 13.653 30.151 30.151 30.151h448.284c16.498 0 30.151-13.653 30.151-30.151v-256c0-16.498-13.653-30.151-30.151-30.151h-448.284c-16.498 0-30.151 13.653-30.151 30.151v256zM192.284 97.849h-63.716c-16.498 0-30.151 13.653-30.151 30.151s13.653 30.151 30.151 30.151h63.716c16.498 0 30.151-13.653 30.151-30.151s-13.653-30.151-30.151-30.151zM192.284 225.849h-63.716c-16.498 0-30.151 13.653-30.151 30.151s13.653 30.151 30.151 30.151h63.716c16.498 0 30.151-13.653 30.151-30.151s-13.653-30.151-30.151-30.151zM192.284 353.849h-63.716c-16.498 0-30.151 13.653-30.151 30.151s13.653 30.151 30.151 30.151h63.716c16.498 0 30.151-13.653 30.151-30.151s-13.653-30.151-30.151-30.151zM192.284 481.849h-63.716c-16.498 0-30.151 13.653-30.151 30.151s13.653 30.151 30.151 30.151h63.716c16.498 0 30.151-13.653 30.151-30.151s-13.653-30.151-30.151-30.151zM384 97.849h-63.716c-16.498 0-30.151 13.653-30.151 30.151s13.653 30.151 30.151 30.151h63.716c16.498 0 30.151-13.653 30.151-30.151s-13.653-30.151-30.151-30.151zM384 225.849h-63.716c-16.498 0-30.151 13.653-30.151 30.151s13.653 30.151 30.151 30.151h63.716c16.498 0 30.151-13.653 30.151-30.151s-13.653-30.151-30.151-30.151zM384 353.849h-63.716c-16.498 0-30.151 13.653-30.151 30.151s13.653 30.151 30.151 30.151h63.716c16.498 0 30.151-13.653 30.151-30.151s-13.653-30.151-30.151-30.151zM384 481.849h-63.716c-16.498 0-30.151 13.653-30.151 30.151s13.653 30.151 30.151 30.151h63.716c16.498 0 30.151-13.653 30.151-30.151s-13.653-30.151-30.151-30.151zM768 512c-141.653 0-256-114.347-256-256s114.347-256 256-256 256 114.347 256 256-114.347 256-256 256zM855.609 195.129c-5.689-32.427-27.876-58.596-57.458-68.836-1.138-15.929-14.222-28.444-30.151-28.444-14.791 0-26.738 10.809-29.582 24.462-14.222 2.276-26.738 7.396-42.667 18.204-13.653 9.102-17.636 27.876-8.533 41.529s27.876 17.636 41.529 8.533c14.791-9.671 19.342-10.24 39.253-10.24 19.342 0 26.738 15.36 28.444 24.462 1.138 7.964 0 18.773-14.791 23.893-25.031 8.533-50.631 18.773-68.836 32.996-19.342 15.36-27.876 40.96-23.324 67.698 5.12 27.307 23.893 49.493 48.924 58.027 1.707 14.791 14.222 26.169 29.582 26.169 16.498 0 29.582-13.084 30.151-29.013 6.258-2.276 12.516-5.12 18.773-7.964 17.067-9.102 21.049-31.858 7.964-46.080-9.102-10.24-24.462-12.516-36.409-5.689-9.102 5.12-20.48 9.671-29.013 7.396-7.964-2.276-10.24-10.809-10.809-13.084-1.138-5.12 0-8.533 1.138-9.102 11.378-9.102 32.427-17.067 51.769-23.893 39.253-13.653 60.871-50.062 54.044-90.453z" />
</font>
</defs>
</svg>
